Sayonara Player Forum

Full Version: cue
You're currently viewing a stripped down version of our content. View the full version with proper formatting.
Hello,
Sayonara it\'s very nice player but havn\'t one function for me.
Will be great to use file *.cue to read name songs from one RIP CD FLAC file.

... for example like this.

REM GENRE Blues-Rock
REM DATE 2016
REM DISCID 8909820A
REM COMMENT \"ExactAudioCopy v1.0b3\"
PERFORMER \"Jon Zeeman\"
TITLE \"Blue Room\"
FILE \"Jon Zeeman - Blue Room.flac\" WAVE
TRACK 01 AUDIO
TITLE \"All I Want Is You\"
PERFORMER \"Jon Zeeman\"
INDEX 01 00:00:00
TRACK 02 AUDIO
TITLE \"Hold On\"
PERFORMER \"Jon Zeeman\"
INDEX 01 02:45:70
TRACK 03 AUDIO
TITLE \"Love in Vain\"
PERFORMER \"Jon Zeeman\"
INDEX 01 07:43:19
TRACK 04 AUDIO
TITLE \"Next to You\"
PERFORMER \"Jon Zeeman\"
INDEX 01 13:14:03
TRACK 05 AUDIO
TITLE \"Still Rainin\' Still Dreamin\'\"
PERFORMER \"Jon Zeeman\"
INDEX 01 17:54:71
TRACK 06 AUDIO
TITLE \"If I Could Make You Love Me\"
PERFORMER \"Jon Zeeman\"
INDEX 01 22:37:35
TRACK 07 AUDIO
TITLE \"All Alone\"
PERFORMER \"Jon Zeeman\"
INDEX 01 27:00:13
TRACK 08 AUDIO
TITLE \"Talkin\' \'Bout My Baby\"
PERFORMER \"Jon Zeeman\"
INDEX 01 31:41:00
TRACK 09 AUDIO
TITLE \"Blue Room\"
PERFORMER \"Jon Zeeman\"
INDEX 01 36:34:71
TRACK 10 AUDIO
TITLE \"Nothin\' in the World\"
PERFORMER \"Jon Zeeman\"
INDEX 01 37:29:40

....

Have you in plan add this function?

Best regards, Fan123
If I understand cue right:
You have one big audio file (.bin/.flac) and one cue file containing the time stamps and metadata of the track. For this feature, some deep changes are necessary and afterwards a lot of testing. I can integrate it of course but it needs some time.
Yes, exactly.
It would be nice to have this option.
Best regards.